720P Video

Download mykonos 2017 pool party september 28,29,30 deep & progressive house babis jb Free Download

HomeDownload › mykonos 2017 pool party september 28,29,30 deep & progressive house babis jb
mykonos 2017 pool party september 28,29,30 deep & progressive house babis jb
mykonos 2017 pool party september 28,29,30 deep & progressive house babis jb HD Mp4 3GP mykonos 2017 pool party september 28,29,30 deep & progressive house babis jb  Video and MP3 mykonos 2017 pool party september 28,29,30 deep & progressive house babis jb 3GP Video

Description

Name: mykonos 2017 pool party september 28,29,30 deep & progressive house babis jb
Duration: 1:08:43
Download: 33.261
Added On: 22 September, 2017
Uploader: TOPDJsMIX


Google Tags

Download mykonos 2017 pool party september 28,29,30 deep & progressive house babis jb full video in hd 720p 1080p Download mykonos 2017 pool party september 28,29,30 deep & progressive house babis jb in Hd , Download Full HD mykonos 2017 pool party september 28,29,30 deep & progressive house babis jb Video Songs , Bangla Romantic, Download mykonos 2017 pool party september 28,29,30 deep & progressive house babis jb HD Bangla Video Songs Free , Love, Funny, Comedy, Hasir Natok mykonos 2017 pool party september 28,29,30 deep & progressive house babis jb Natok full HD PC Mp4 3gp 720p, 1080p Download Now , Download mykonos 2017 pool party september 28,29,30 deep & progressive house babis jb Bollywood Movie Videos , Download mykonos 2017 pool party september 28,29,30 deep & progressive house babis jb Kolkata Bangla Video Songs Download mykonos 2017 pool party september 28,29,30 deep & progressive house babis jb full mp3 Download Bangla, English, Hindi, Tamil mykonos 2017 pool party september 28,29,30 deep & progressive house babis jb Full Mpg Album Songs Bangla, Download New Unrelesed mykonos 2017 pool party september 28,29,30 deep & progressive house babis jb Bangla Full Mp3 Songs 192 kbps 64 kbps, Download New Unrelesed mykonos 2017 pool party september 28,29,30 deep & progressive house babis jb Bollywood Hindi Full Mp3 Songs 192 kbps 64 kbps, Download mykonos 2017 pool party september 28,29,30 deep & progressive house babis jb Telugu Tamil Full Mp3 Songs 192 kbps 64 kbps, Download New Unrelesed mykonos 2017 pool party september 28,29,30 deep & progressive house babis jb HollyWood English Movie Full Mp3 Songs 192 kbps 64 kbps, Download Bangladesh, India, Pakistan MP3, 3GP, MP4, HD, MKV, Avi mykonos 2017 pool party september 28,29,30 deep & progressive house babis jb (2017) all video Free Download mykonos 2017 pool party september 28,29,30 deep & progressive house babis jb torrent utorrent watch online Download mykonos 2017 pool party september 28,29,30 deep & progressive house babis jb English Romantic, Vevo HD Video Songs , Download, mykonos 2017 pool party september 28,29,30 deep & progressive house babis jb full Movie Download uTorrent , Download New Unrelesed mykonos 2017 pool party september 28,29,30 deep & progressive house babis jb full album zip file CD rip download kickass , mykonos 2017 pool party september 28,29,30 deep & progressive house babis jb full Movie Download kickass torrent 1080p HD , Download mykonos 2017 pool party september 28,29,30 deep & progressive house babis jb Kolkata Bangla, Bengali Full HD Movie , Download mykonos 2017 pool party september 28,29,30 deep & progressive house babis jb Full Bangla HD Movie , Download mykonos 2017 pool party september 28,29,30 deep & progressive house babis jb Hollywood English Movie , Download mykonos 2017 pool party september 28,29,30 deep & progressive house babis jb BollyWood Full HD Movie Watch, Now , Download mykonos 2017 pool party september 28,29,30 deep & progressive house babis jb Hindi, Tamil Movie , Download , master print download full movie , Download mykonos 2017 pool party september 28,29,30 deep & progressive house babis jb clear print download, Download mykonos 2017 pool party september 28,29,30 deep & progressive house babis jb full movie official print download DVDrip Vcdscam webrip Dvdscam download now, mykonos 2017 pool party september 28,29,30 deep & progressive house babis jb watch onlinemykonos 2017 pool party september 28,29,30 deep & progressive house babis jb free download. mykonos 2017 pool party september 28,29,30 deep & progressive house babis jb download Full Hd Songs. Download mykonos 2017 pool party september 28,29,30 deep & progressive house babis jb full Mp3 song (320kbps). mykonos 2017 pool party september 28,29,30 deep & progressive house babis jb Song Download, Mp4, 3gp, Avi, HD full Android, Pc.Download mykonos 2017 pool party september 28,29,30 deep & progressive house babis jb official Print download DVDrip Vcdscam webrip Dvdscam download now september 28,29,30 deep & progressive house babis jb mykonos 2017 pool party

PERFORMER "top djs mix"
TITLE "mykonos 2017 pool party "
FILE "TOP DJs MIX BJB2017DD.mp3" MP3
TRACK 01 AUDIO TITLE "I Got My Pride" PERFORMER "01 Costa Mee" INDEX 01 00:00:00
TRACK 02 AUDIO TITLE "Ocean Drive" PERFORMER "02 Duke Dumont" INDEX 01 04:42:00
TRACK 03 AUDIO TITLE "Feelin'" PERFORMER "03 Ozzie London" INDEX 01 09:08:00
TRACK 04 AUDIO TITLE "Tell Me Who" PERFORMER "04 Vanotek feat. Eneli" INDEX 01 15:13:00
TRACK 05 AUDIO TITLE "I Am So Deep - YouTube" PERFORMER "05 Anton Ishutin Nytron feat. Gosha" INDEX 01 18:07:00
TRACK 06 AUDIO TITLE "The Cure (Suprafive Remix)" PERFORMER "06 Lady Gaga" INDEX 01 22:31:00
TRACK 07 AUDIO TITLE "Inside Your Soul" PERFORMER "07 Elis M. Feeling feat. DIVA" INDEX 01 26:11:00
TRACK 08 AUDIO TITLE "Without You" PERFORMER "08 Nick Lawyer" INDEX 01 31:25:00
TRACK 09 AUDIO TITLE "A Girl I Knew" PERFORMER "09 Haipa" INDEX 01 34:25:00
TRACK 10 AUDIO TITLE "Headstrong" PERFORMER "10 Antonella Ponce Gabriel Montufar" INDEX 01 39:01:00
TRACK 11 AUDIO TITLE "Need to feel loved" PERFORMER "11 DEP059 Andrey Exx, BSKF, Diva Vocal" INDEX 01 43:57:00
TRACK 12 AUDIO TITLE "Miles Away" PERFORMER "12 Natema" INDEX 01 49:24:00
TRACK 13 AUDIO TITLE "Human" PERFORMER "13 RoelBeat Pruchowsky ft Casey" INDEX 01 53:02:00
TRACK 14 AUDIO TITLE "Crush" PERFORMER "14 A-Mase feat X Sharliz" INDEX 01 58:05:00
TRACK 15 AUDIO TITLE "YouTube" PERFORMER "15 Sonny Fodera featuring Yasmeen 'Caught Up' (Extended Mix)" INDEX 01 64:29:00

Related